TITLE:FI̔s
LEVEL:10
BPM:150
WAVE:
OFFSET:0
SCOREINIT:560
SCOREDIFF:130
SONGVOL:100
SEVOL:100
BALLOON:

COURSE:Oni
#START
2211221122112211,
2211221122112211,
1110221011102210,
1110221011102210,
1110112211102210,
1110112211102210,
1110221011102210,
2211121120001000,
2211121120001000,
2211221110002000,
2211221110002211,
2000111120222020,
1000111120222020,
1011200010111020,
1110200011102000,
3000111120222020,
1000111120222000,
1011200010112222,
1110200011102000,
2211221120002000,
2211221110002000,
2211221122112211,
1011201120112011,
2011201120112011,
2000000000000000,
0022202220222022,
2022202220222022,
2000000000000000,
1211221120222020,
#GOGOSTART
2211121122221120,
2211121122221120,
2211221111221210,
2211221111221120,
2211121122112220,
2211121122112220,
2211221111221210,
2211221122112221,
2111122121112221,
2111122121112221,
#GOGOEND
2022112210002000,
1122112220002000,
2022112210002000,
2000000030000000,
#GOGOSTART
2222111122221111,
2222111122221111,
#GOGOEND
2011221120002000,
1122112222112211,
2211221120002000,
1111222212111212,
#GOGOSTART
2211221122112211,
2211221122112211,
1011200010101020,
2011200030303040,
#GOGOEND
#BPMCHANGE 147,86
4000000000000000,
#BPMCHANGE 134,36
2000000020000000,
#BPMCHANGE 116,9
2000000040000000,
#BPMCHANGE 116,11
3000000000000000,
0000000000000000,
0000000000000000,
#END
